#TITLE:ariari;
#SUBTITLE:;
#ARTIST:李贞贤;
#TITLETRANSLIT:;
#SUBTITLETRANSLIT:;
#ARTISTTRANSLIT:;
#CREDIT:;
#BANNER:ariari-logo.jpg;
#BACKGROUND:ﰢ.jpg;
#LYRICSPATH:;
#CDTITLE:Lan.png;
#MUSIC:ﰢ.mp3;
#OFFSET:-0.020;
#SAMPLESTART:100.000;
#SAMPLELENGTH:12.000;
#SELECTABLE:YES;
#BPMS:0.000=144.000;
#STOPS:;
#BGCHANGES:;
// cache tags:
#FIRSTBEAT:4.750;
#LASTBEAT:368.250;
#SONGFILENAME:Songs/lan sky/ariari/ariari.sm;
#HASMUSIC:1;
#HASBANNER:1;
#MUSICLENGTH:156.595;
// end cache tags

//---------------dance-single - sky----------------
#NOTES:
     dance-single:
     sky:
     Hard:
     10:
     0.962,0.999,1.000,0.057,0.527,774.000,272.000,9.000,0.000,1.000:

0000
0000
0000
0000
,
0000
0000
0000
0100
0000
0001
0000
0010
0000
1000
0000
0000
0000
0010
0000
0000
,
0000
0200
0000
0000
0000
0000
0000
0000
,
0000
0320
0000
0000
0000
0000
0000
0000
,
0000
0032
0000
0000
0000
0000
0000
0000
,
0000
0203
0000
0000
0000
0000
0000
0000
,
0000
0000
0000
0000
0000
0000
0000
2300
,
0000
0000
0000
0000
,
0000
0000
0000
0000
,
3010
0100
0010
0100
0010
0100
0010
0100
0001
0010
0100
1000
0100
0010
0001
0010
,
1100
0010
0101
0000
1010
0000
1001
0100
,
0011
0100
1010
0000
0101
0000
1001
0010
,
1100
0010
0101
0000
0011
0000
1010
0100
,
0011
0100
1001
0000
0010
0000
0101
0010
,
1100
0010
0101
0000
1001
0000
0110
0001
,
0110
0000
1000
0000
0011
0000
0000
0000
0010
0100
0010
0100
0010
0100
0010
0100
,
0001
1000
0001
1000
0001
1000
0001
1000
0001
1000
0001
1000
0001
1000
0001
1000
,
0010
0100
1000
0100
0010
0001
1100
0000
0000
0000
0101
0000
0010
0000
0100
0000
,
1001
0000
0000
0000
0110
0000
0000
0000
1001
0000
0000
0000
0010
0100
1000
0100
,
0011
0100
1001
0010
1100
0010
0101
0010
,
1001
0100
0011
0100
1001
0010
1100
0010
,
0101
0000
0010
0000
1100
0000
0010
0000
0001
0010
0100
0010
0100
1000
0100
0010
,
0101
0000
0000
0000
1010
0000
0000
0000
0101
0000
0000
0000
0100
0010
0001
0010
,
1100
0010
1001
0100
0011
0100
1010
0100
,
0011
0000
0100
1000
0011
0000
1000
0100
0011
0000
0100
1000
0011
0000
0100
0010
,
1001
0000
0001
0010
1100
0000
0010
0001
1100
0000
0010
0000
0000
0000
0000
0000
,
1001
0100
1010
0100
0011
0100
1001
0110
,
1001
0010
0101
0010
1100
0010
1001
0100
,
1010
0100
0011
0100
1001
0100
1001
0010
,
1100
0010
0101
0010
1001
0000
1100
0110
,
0011
0100
1001
0010
1100
0010
0101
1010
,
0101
0010
1001
0100
1010
0100
0011
0100
,
1001
0010
1100
0010
0101
0010
1001
0100
,
1001
0000
0010
0100
1000
0100
0010
0000
0100
0010
0001
0010
1100
0000
1000
0100
,
0011
0000
0100
0000
1010
0000
0100
0000
1001
0000
0010
0000
0101
0000
0100
1000
,
0011
0000
0100
0000
1010
0000
0100
0000
0011
0000
0100
0000
1001
0000
0010
0100
,
1001
0010
0101
0010
1100
0010
1001
0100
,
0011
0100
1010
0100
1001
0010
0101
1010
,
1001
0100
0011
0100
1010
0100
0011
1010
,
0101
0000
0010
0000
1100
0000
0010
0000
1001
0000
0100
0000
0011
0000
0001
0010
,
1100
0000
0010
0000
1001
0000
0100
0000
0011
0000
0100
0000
1001
0000
0001
0010
,
1100
0000
1000
0100
0011
0000
0100
0010
0001
0010
0100
1000
0100
0010
0100
0010
,
1001
0101
1010
1100
,
0110
0101
1001
0011
,
1010
0110
1001
1100
,
0101
0011
1010
0110
,
1001
0000
0100
0000
1010
0000
1000
0100
0011
0000
1000
0000
0101
0000
0001
0010
,
1100
0000
0010
0000
0101
0000
1000
0100
0011
0000
0100
0000
1010
0000
0001
0010
,
1100
0000
1000
0100
0011
0000
0100
1000
0011
0000
1000
0100
0011
0000
0001
0010
,
1100
0000
0010
0000
0101
0000
0010
0000
1001
0000
0100
0010
0001
0000
1010
0000
,
0101
0010
1100
0010
1001
0100
0011
0110
,
1100
0010
0101
0010
1100
0010
1001
0100
,
1010
0100
0011
0100
1010
0100
1001
0010
,
1100
0010
0101
0010
1100
0010
0101
1010
,
1001
0100
1010
0100
0011
0100
1010
0110
,
0101
0000
0010
0000
1001
0000
0100
0000
1010
0000
0100
0000
0011
0000
1000
0100
,
0011
0000
0100
0000
1001
0000
0010
0000
0101
0000
0001
0010
1100
0000
1000
0100
,
0011
0000
0100
0010
1001
0000
0001
0010
1100
0000
0100
0010
0001
0010
0100
0010
,
2001
0010
0100
0000
0000
0000
0100
0010
0001
0000
0000
0000
0010
0100
0010
0000
,
0001
0010
0001
3000
0100
0000
0001
0010
0100
0000
0000
0000
1010
0000
0000
0000
,
0201
0010
1000
0000
0000
0000
1000
0010
0001
0000
0000
0000
0010
1000
0001
0000
,
1000
0010
0001
0300
0010
0000
1000
0100
0011
0000
0000
0000
1001
0100
0010
0000
,
0100
0010
0001
0010
0100
0010
0001
0010
0100
0010
0001
0010
0100
0010
0001
0010
,
0100
0010
0001
0010
0100
0010
0001
0010
0100
0010
0001
0010
0100
0010
0001
0010
,
0100
1000
0100
0010
0001
0010
0100
1000
0100
0010
0100
0010
1001
0000
0000
0000
,
0010
0100
0010
0100
0010
0100
0010
0100
0001
1000
0001
1000
0001
1000
0001
1000
,
0022
0000
0000
0000
,
0133
0010
0001
0010
0100
1000
0010
0100
1000
0100
0010
0001
0010
0100
0010
0100
,
1001
0010
1100
0010
1001
0100
0011
0110
,
1100
0010
0101
0010
1100
0010
1001
0100
,
1010
0100
0011
0100
1010
0100
1001
0010
,
1100
0010
0101
0010
1100
0010
0101
1010
,
1001
0100
1010
0100
0011
0100
1010
0110
,
0101
0000
0010
0000
1001
0000
0100
0000
1010
0000
0100
0000
0011
0000
1000
0100
,
0011
0000
0100
0000
1001
0000
0010
0000
0101
0000
0001
0010
1100
0000
1000
0100
,
0011
0000
0100
0010
1001
0000
0001
0010
1100
0000
0100
0010
0001
0010
0100
0010
,
1100
0010
0101
0010
1001
0100
0011
1010
,
1100
0010
1001
0100
0011
0100
1010
0100
,
0011
0100
1001
0010
1001
0100
0011
0100
,
1010
0100
0011
0100
1010
0100
1001
0110
,
1001
0010
1100
0010
0101
0010
1100
0110
,
0011
0000
0100
0000
1001
0000
0010
0000
1100
0000
0010
0000
0101
0000
0001
0010
,
0100
0010
0100
0010
0100
0010
0100
0010
1000
0100
0010
0001
0010
0100
0010
0001
,
1010
0000
0000
0110
0000
0010
1000
0010
,
1001
0000
0000
0000
0110
0000
0000
0000
1001
0000
0000
0000
0010
0100
1000
0100
,
0011
0100
1001
0010
1100
0010
0101
0010
,
1001
0100
0011
0100
1001
0010
1100
0010
,
0101
0000
0010
0000
1100
0000
0010
0000
0001
0010
0100
0010
0100
1000
0100
0010
,
0101
0000
0000
0000
1010
0000
0000
0000
0101
0000
0000
0000
0100
0010
0001
0010
,
1100
0010
1001
0100
0011
0100
1010
0100
,
0010
0100
0010
0100
0010
0100
0010
0100
0001
1000
0001
1000
0001
1000
0001
1000
,
0010
0100
0010
0100
0001
1000
0001
1000
0010
0100
1000
0100
0010
0001
0010
0100
,
1001
0010
0000
0000
0000
0000
0000
0000
0000
0000
0000
0000
0000
0000
0000
0000
;
